古哥論壇

 找回密碼
 注冊(分享大片)
查看: 1840|回復: 25
打印 上一主題 下一主題

[720P] [自衛藝術]The.Art.of.Self.Defense.2019.720p.BluRay.x264-DRONES 5.47GB

[復制鏈接]
跳轉到指定樓層
1#
發表于 2019-10-8 22:15:46 | 只看該作者 回帖獎勵 |倒序瀏覽 |閱讀模式
4K天堂

◎譯  名 自衛藝術
◎片  名 The Art of Self-Defense
◎年  代 2019
◎產  地 美國
◎類  別 喜劇
◎語  言 英語
◎上映日期 2019-03-10(西南偏南電影節) / 2019-06-21(美國)
◎IMDb評分 7.2/10 from 3053 users
◎IMDb鏈接 http://www.imdb.com/title/tt7339248
◎豆瓣評分 7.9/10 from 365 users
◎藍光高清   http://www.4ktt.com
◎片  長 104分鐘
◎導  演 萊利·斯特恩斯 Riley Stearns
◎編  劇 萊利·斯特恩斯 Riley Stearns
◎主  演 杰西·艾森伯格 Jesse Eisenberg
      亞歷桑德羅·尼沃拉 Alessandro Nivola
      伊莫琴·普茨 Imogen Poots
      菲利普·安德瑞·波鐵洛 Phillip Andre Botello
      勒蘭德·奧瑟 Leland Orser
      喬希·法德姆 Josh Fadem
      杰森·伯基 Jason Burkey
      大衛·澤爾納 David Zellner
      戴維·約翰遜 Davey Johnson
      Steve Terada
      Dallas Edwards

◎簡  介
  Bleecker Street購得萊利·斯特恩斯執導的黑色喜劇新片《自衛藝術》 的全球發行權,杰西·艾森伯格、伊莫珍·波茨、亞歷桑德羅·尼沃拉主演,艾森伯格飾演一個在街上莫名遭遇攻擊的倒霉孩子,后加入柔道訓練學校跟著極有魅力又充滿神秘的師傅(尼沃拉飾)學習自衛防御術,揭開了充滿兄弟會情誼、暴力、超男子主義的邪惡世界的面紗,波茨扮演的女主角正努力奮斗想取得一席地位。該片已于周一在肯塔基開拍。

Video
ID : 1
Format : AVC
Format/Info : Advanced Video Codec
Format profile : [email protected]
Format settings : CABAC / 5 Ref Frames
Format settings, CABAC : Yes
Format settings, Reference frames : 5 frames
Codec ID : V_MPEG4/ISO/AVC
Duration : 1 h 44 min
Bit rate : 5 988 kb/s
Width : 1 280 pixels
Height : 696 pixels
Display aspect ratio : 1.85:1
Frame rate mode : Constant
Frame rate : 23.976 (24000/1001) FPS
Color space : YUV
Chroma subsampling : 4:2:0
Bit depth : 8 bits
Scan type : Progressive
Bits/(Pixel*Frame) : 0.280
Stream size : 4.36 GiB (80%)
Writing library : x264 core 158 r2984 3759fcb
Encoding settings : cabac=1 / ref=5 / deblock=1:-3:-3 / analyse=0x3:0x113 / me=umh / subme=8 / psy=1 / psy_rd=1.00:0.00 / mixed_ref=1 / me_range=16 / chroma_me=1 / trellis=1 / 8x8dct=1 / cqm=0 / deadzone=21,11 / fast_pskip=1 / chroma_qp_offset=-2 / threads=22 / lookahead_threads=3 / sliced_threads=0 / nr=0 / decimate=1 / interlaced=0 / bluray_compat=0 / constrained_intra=0 / bframes=3 / b_pyramid=2 / b_adapt=1 / b_bias=0 / direct=3 / weightb=1 / open_gop=0 / weightp=2 / keyint=250 / keyint_min=23 / scenecut=40 / intra_refresh=0 / rc_lookahead=50 / rc=2pass / mbtree=1 / bitrate=5988 / ratetol=1.0 / qcomp=0.60 / qpmin=0 / qpmax=69 / qpstep=4 / cplxblur=20.0 / qblur=0.5 / ip_ratio=1.40 / aq=1:1.00
Language : English
Default : Yes
Forced : No

Audio
ID : 2
Format : DTS
Format/Info : Digital Theater Systems
Codec ID : A_DTS
Duration : 1 h 44 min
Bit rate mode : Constant
Bit rate : 1 509 kb/s
Channel(s) : 6 channels
Channel layout : C L R Ls Rs LFE
Sampling rate : 48.0 kHz
Frame rate : 93.750 FPS (512 SPF)
Bit depth : 24 bits
Compression mode : Lossy
Stream size : 1.10 GiB (20%)
Language : English
Default : Yes
Forced : No





The.Art.of.Self.Defense.2019.720p.BluRay.x264-DRONES.torrent (28.26 KB, 下載次數: 75)

古哥影視論壇www.stvwq.club 高清電影,藍光電影,最新電影,電影天堂,影視帝國,人人影視
2#
發表于 2019-10-9 00:49:14 | 只看該作者
多謝樓主,支持分享
古哥影視論壇www.stvwq.club 高清電影,藍光電影,最新電影,電影天堂,影視帝國,人人影視
回復 支持 反對

使用道具 舉報

3#
發表于 2019-10-9 10:28:16 | 只看該作者

這東西我收了!謝謝樓主!古哥影視真好!一定要堅持下去,支持不住時請讓大家捐助
古哥影視論壇www.stvwq.club 高清電影,藍光電影,最新電影,電影天堂,影視帝國,人人影視
回復 支持 反對

使用道具 舉報

4#
發表于 2019-10-9 11:23:39 | 只看該作者

論壇不能沒有像樓主這樣的人才啊!我會一直支持古哥影視的版主和管理員,這么多年,電影看得太過癮了。
古哥影視論壇www.stvwq.club 高清電影,藍光電影,最新電影,電影天堂,影視帝國,人人影視
回復 支持 反對

使用道具 舉報

5#
發表于 2019-10-9 13:11:58 | 只看該作者

這個帖子不回對不起自己!我想我是一天也不能離開古哥影視
古哥影視論壇www.stvwq.club 高清電影,藍光電影,最新電影,電影天堂,影視帝國,人人影視
回復 支持 反對

使用道具 舉報

6#
發表于 2019-10-9 15:10:27 | 只看該作者
樓主發貼辛苦了,謝謝樓主分享!我覺得古哥影視的電影是最值得收藏的!
古哥影視論壇www.stvwq.club 高清電影,藍光電影,最新電影,電影天堂,影視帝國,人人影視
回復 支持 反對

使用道具 舉報

7#
發表于 2019-10-9 17:53:26 | 只看該作者
謝謝樓主分享
古哥影視論壇www.stvwq.club 高清電影,藍光電影,最新電影,電影天堂,影視帝國,人人影視
回復 支持 反對

使用道具 舉報

8#
發表于 2019-10-9 19:00:14 | 只看該作者
謝謝樓主分享新片,影視帝國很強大!
古哥影視論壇www.stvwq.club 高清電影,藍光電影,最新電影,電影天堂,影視帝國,人人影視
回復 支持 反對

使用道具 舉報

9#
發表于 2019-10-9 20:08:11 | 只看該作者

既然你誠信誠意的推薦了,那我就勉為其難的看看吧!愛電影,愛生活古哥影視不走平凡路。
古哥影視論壇www.stvwq.club 高清電影,藍光電影,最新電影,電影天堂,影視帝國,人人影視
回復 支持 反對

使用道具 舉報

10#
發表于 2019-10-9 20:14:31 | 只看該作者

論壇不能沒有像樓主這樣的人才啊!我會一直支持古哥影視的版主和管理員,這么多年,電影看得太過癮了。
古哥影視論壇www.stvwq.club 高清電影,藍光電影,最新電影,電影天堂,影視帝國,人人影視
回復 支持 反對

使用道具 舉報

11#
發表于 2019-10-9 20:59:22 | 只看該作者
感謝LZ分享下載~~
古哥影視論壇www.stvwq.club 高清電影,藍光電影,最新電影,電影天堂,影視帝國,人人影視
回復 支持 反對

使用道具 舉報

12#
發表于 2019-10-9 22:10:02 | 只看該作者
謝謝樓主分享。。。。。。。
古哥影視論壇www.stvwq.club 高清電影,藍光電影,最新電影,電影天堂,影視帝國,人人影視
回復 支持 反對

使用道具 舉報

13#
發表于 2019-10-9 22:50:02 | 只看該作者
回帖是美德,謝謝分享!!  
古哥影視論壇www.stvwq.club 高清電影,藍光電影,最新電影,電影天堂,影視帝國,人人影視
回復 支持 反對

使用道具 舉報

14#
發表于 2019-10-10 03:46:22 | 只看該作者
謝謝樓主分享
古哥影視論壇www.stvwq.club 高清電影,藍光電影,最新電影,電影天堂,影視帝國,人人影視
回復 支持 反對

使用道具 舉報

15#
發表于 2019-10-10 07:53:47 | 只看該作者
看男豬腳的臉就覺得很搞笑
古哥影視論壇www.stvwq.club 高清電影,藍光電影,最新電影,電影天堂,影視帝國,人人影視
回復 支持 反對

使用道具 舉報

16#
發表于 2019-10-10 17:49:47 | 只看該作者

樓主太厲害了!樓主,I*老*虎*U!古哥影視絕對是電影愛好的天堂!
古哥影視論壇www.stvwq.club 高清電影,藍光電影,最新電影,電影天堂,影視帝國,人人影視
回復 支持 反對

使用道具 舉報

17#
發表于 2019-10-11 09:53:26 | 只看該作者
看看片子好不好看!謝謝分享!
古哥影視論壇www.stvwq.club 高清電影,藍光電影,最新電影,電影天堂,影視帝國,人人影視
回復 支持 反對

使用道具 舉報

18#
發表于 2019-10-11 14:27:40 | 只看該作者
感謝無私分享
古哥影視論壇www.stvwq.club 高清電影,藍光電影,最新電影,電影天堂,影視帝國,人人影視
回復 支持 反對

使用道具 舉報

19#
發表于 2019-10-11 21:29:50 | 只看該作者

這個帖子不回對不起自己!我想我是一天也不能離開古哥影視
古哥影視論壇www.stvwq.club 高清電影,藍光電影,最新電影,電影天堂,影視帝國,人人影視
回復 支持 反對

使用道具 舉報

20#
發表于 2019-10-12 14:55:00 | 只看該作者

好好好,謝謝分享!!!
古哥影視論壇www.stvwq.club 高清電影,藍光電影,最新電影,電影天堂,影視帝國,人人影視
回復 支持 反對

使用道具 舉報

懶得打字嘛,點擊右側快捷回復->
您需要登錄后才可以回帖 登錄 | 注冊(分享大片)

本版積分規則

影視帝國免責聲明
本站提供網上學習交流和自由討論使用,所有資源均來自互聯網公開渠道,發布和個人言論并不代表本站立場,本站不負任何責任.
如發現有侵權行為,請與我們聯系.我們將立刻從網站上刪除,并向所有持版權者致最深歉意.
影視帝國論壇已經安全運行

QQ|小黑屋|手機版|Archiver|古哥論壇

GMT+8, 2020-6-5 16:23 , Processed in 0.197609 second(s), 19 queries , Gzip On.

Powered by Discuz! X3.4

© 2001-2017 Comsenz Inc.

快速回復 返回頂部 返回列表
三剑客和女王彩金
金蟾捕鱼游戏网络版 11选5下期推算方法 东方6+1开 黄金股票 东北穷胡麻将技巧 河北20选5几点开奖 足球比分预测平台 英超冠军一览表 欢乐大众麻将下载 陕西十一选五开奖l结果 捕鱼大富翁官网 11选5任三简单算法 天才麻将少女游戏 吉林十一选五开奖一定牛预测 快乐10分复式中奖规则 天津快乐10分钟一