古哥论坛

 找回密码
 注册(分享大片)
查看: 1959|回复: 54
打印 上一主题 下一主题

[1080P] [自卫艺术]The.Art.of.Self.Defense.2019.1080p.BluRay.x264-DRONES 8.74GB

[复制链接]
跳转到指定楼层
1#
发表于 2019-10-8 22:20:52 | 只看该作者 回帖奖励 |倒序浏览 |阅读模式
4K天堂

◎译  名 自卫艺术
◎片  名 The Art of Self-Defense
◎年  代 2019
◎产  地 美国
◎类  别 喜剧
◎语  言 英语
◎上映日期 2019-03-10(西南偏南电影节) / 2019-06-21(美国)
◎IMDb评分 7.2/10 from 3053 users
◎IMDb链接 http://www.imdb.com/title/tt7339248
◎豆瓣评分 7.9/10 from 365 users
◎蓝光高清   http://www.4ktt.com
◎片  长 104分钟
◎导  演 莱利·斯特恩斯 Riley Stearns
◎编  剧 莱利·斯特恩斯 Riley Stearns
◎主  演 杰西·艾森伯格 Jesse Eisenberg
      亚历桑德罗·尼沃拉 Alessandro Nivola
      伊莫琴·普茨 Imogen Poots
      ?#35780;?#26222;·安德瑞·波铁洛 Phillip Andre Botello
      勒兰德·奥瑟 Leland Orser
      乔希·法德姆 Josh Fadem
      杰森·伯基 Jason Burkey
      大卫·泽尔纳 David Zellner
      戴维·约翰逊 Davey Johnson
      Steve Terada
      Dallas Edwards

◎简  介
  Bleecker Street购?#32654;?#21033;·斯特恩斯执导的黑色喜剧新片《自卫艺术》 的全球发行权,杰西·艾森伯格、伊莫珍·波茨、亚历桑德罗·尼沃拉主演,艾森伯格饰演一个在街上莫名遭遇攻击的倒?#36141;?#23376;,后加入柔道训练学校跟着极有魅力又充满神秘的师傅(尼沃拉饰)学习自卫防御术,揭开了充满?#20540;?#20250;情谊、暴力、超男子主义的邪恶世界的面纱,波茨扮演的女主角正努力奋斗想取得一席地位。该片已于周一在肯塔基开拍。

Video
ID : 1
Format : AVC
Format/Info : Advanced Video Codec
Format profile : [email protected]
Format settings : CABAC / 4 Ref Frames
Format settings, CABAC : Yes
Format settings, Reference frames : 4 frames
Codec ID : V_MPEG4/ISO/AVC
Duration : 1 h 44 min
Bit rate : 10.5 Mb/s
Width : 1 920 pixels
Height : 1 040 pixels
Display aspect ratio : 1.85:1
Frame rate mode : Constant
Frame rate : 23.976 (24000/1001) FPS
Color space : YUV
Chroma subsampling : 4:2:0
Bit depth : 8 bits
Scan type : Progressive
Bits/(Pixel*Frame) : 0.219
Stream size : 7.63 GiB (87%)
Writing library : x264 core 158 r2984 3759fcb
Encoding settings : cabac=1 / ref=4 / deblock=1:-3:-3 / analyse=0x3:0x113 / me=umh / subme=8 / psy=1 / psy_rd=1.00:0.00 / mixed_ref=1 / me_range=16 / chroma_me=1 / trellis=1 / 8x8dct=1 / cqm=0 / deadzone=21,11 / fast_pskip=1 / chroma_qp_offset=-2 / threads=32 / lookahead_threads=5 / sliced_threads=0 / nr=0 / decimate=1 / interlaced=0 / bluray_compat=0 / constrained_intra=0 / bframes=3 / b_pyramid=2 / b_adapt=1 / b_bias=0 / direct=3 / weightb=1 / open_gop=0 / weightp=2 / keyint=250 / keyint_min=23 / scenecut=40 / intra_refresh=0 / rc_lookahead=50 / rc=2pass / mbtree=1 / bitrate=10492 / ratetol=1.0 / qcomp=0.60 / qpmin=0 / qpmax=69 / qpstep=4 / cplxblur=20.0 / qblur=0.5 / ip_ratio=1.40 / aq=1:1.00
Language : English
Default : Yes
Forced : No

Audio
ID : 2
Format : DTS
Format/Info : Digital Theater Systems
Codec ID : A_DTS
Duration : 1 h 44 min
Bit rate mode : Constant
Bit rate : 1 509 kb/s
Channel(s) : 6 channels
Channel layout : C L R Ls Rs LFE
Sampling rate : 48.0 kHz
Frame rate : 93.750 FPS (512 SPF)
Bit depth : 24 bits
Compression mode : Lossy
Stream size : 1.10 GiB (13%)
Language : English
Default : Yes
Forced : No





The.Art.of.Self.Defense.2019.1080p.BluRay.x264-DRONES.torrent (44.63 KB, 下载次数: 134)

提示:如迅雷下载提示"任务出错"、"因版权无法下载",请更换【迅雷5】,提取码: ai7u
古哥影视论坛www.stvwq.club 高清电影,蓝光电影,最新电影,电影天堂,影视帝国,人人影视
提示:如迅雷下载提示"任务出错"、"因版权无法下载",请更换【迅雷5】,提取码: ai7u
2#
发表于 2019-10-8 22:31:50 | 只看该作者
?#34892;桓行?#38750;常?#34892;?/td>
古哥影视论坛www.stvwq.club 高清电影,蓝光电影,最新电影,电影天堂,影视帝国,人人影视
回复 支持 反对

使用道具 举报

3#
发表于 2019-10-8 22:37:15 | 只看该作者

楼主太厉害了!楼主,I*老*虎*U!古哥影视绝对是电影爱好的天堂!
古哥影视论坛www.stvwq.club 高清电影,蓝光电影,最新电影,电影天堂,影视帝国,人人影视
回复 支持 反对

使用道具 举报

4#
发表于 2019-10-9 00:47:40 | 只看该作者
?#34892;?#20998;享,支持楼主
古哥影视论坛www.stvwq.club 高清电影,蓝光电影,最新电影,电影天堂,影视帝国,人人影视
回复 支持 反对

使用道具 举报

5#
发表于 2019-10-9 09:00:18 | 只看该作者

这东西我收了!谢谢楼主!古哥影视真好!一定要坚持下去,支持不住时请让大家捐助
古哥影视论坛www.stvwq.club 高清电影,蓝光电影,最新电影,电影天堂,影视帝国,人人影视
回复 支持 反对

使用道具 举报

6#
发表于 2019-10-9 09:10:15 | 只看该作者
下载试试看
古哥影视论坛www.stvwq.club 高清电影,蓝光电影,最新电影,电影天堂,影视帝国,人人影视
回复 支持 反对

使用道具 举报

7#
发表于 2019-10-9 10:59:59 | 只看该作者
谢谢楼主分享
古哥影视论坛www.stvwq.club 高清电影,蓝光电影,最新电影,电影天堂,影视帝国,人人影视
回复 支持 反对

使用道具 举报

8#
发表于 2019-10-9 16:41:09 | 只看该作者
多谢楼主分享
古哥影视论坛www.stvwq.club 高清电影,蓝光电影,最新电影,电影天堂,影视帝国,人人影视
回复 支持 反对

使用道具 举报

9#
发表于 2019-10-9 20:08:43 | 只看该作者

?#34892;?#27004;主的无私分享!要想古哥影视好,就靠你我他!
古哥影视论坛www.stvwq.club 高清电影,蓝光电影,最新电影,电影天堂,影视帝国,人人影视
回复 支持 反对

使用道具 举报

10#
发表于 2019-10-9 20:32:10 | 只看该作者
楼主发贴辛苦了,谢谢楼主分享!我觉得古哥影视的电影是最值得收藏?#27169;?/td>
古哥影视论坛www.stvwq.club 高清电影,蓝光电影,最新电影,电影天堂,影视帝国,人人影视
回复 支持 反对

使用道具 举报

11#
发表于 2019-10-9 22:50:33 | 只看该作者
回帖是美德,谢谢分享!!  
古哥影视论坛www.stvwq.club 高清电影,蓝光电影,最新电影,电影天堂,影视帝国,人人影视
回复 支持 反对

使用道具 举报

12#
发表于 2019-10-10 11:00:09 | 只看该作者

楼主太厉害了!楼主,I*老*虎*U!古哥影视绝对是电影爱好的天堂!
古哥影视论坛www.stvwq.club 高清电影,蓝光电影,最新电影,电影天堂,影视帝国,人人影视
回复 支持 反对

使用道具 举报

13#
发表于 2019-10-10 19:10:39 | 只看该作者
?#34892;?#27004;主的分享
古哥影视论坛www.stvwq.club 高清电影,蓝光电影,最新电影,电影天堂,影视帝国,人人影视
回复 支持 反对

使用道具 举报

14#
发表于 2019-10-11 09:16:27 | 只看该作者
楼主发贴辛苦了,谢谢楼主分享!我觉得古哥影视的电影是最值得收藏?#27169;?/td>
古哥影视论坛www.stvwq.club 高清电影,蓝光电影,最新电影,电影天堂,影视帝国,人人影视
回复 支持 反对

使用道具 举报

15#
发表于 2019-10-11 09:33:12 | 只看该作者
豆瓣6.5分以上的都值得看
古哥影视论坛www.stvwq.club 高清电影,蓝光电影,最新电影,电影天堂,影视帝国,人人影视
回复 支持 反对

使用道具 举报

16#
发表于 2019-10-11 14:37:25 | 只看该作者
不知道怎么样啊?
古哥影视论坛www.stvwq.club 高清电影,蓝光电影,最新电影,电影天堂,影视帝国,人人影视
回复 支持 反对

使用道具 举报

17#
发表于 2019-10-11 21:55:31 | 只看该作者
剧情挺有意思的哈 好片
古哥影视论坛www.stvwq.club 高清电影,蓝光电影,最新电影,电影天堂,影视帝国,人人影视
回复 支持 反对

使用道具 举报

19#
发表于 2019-10-12 13:43:44 | 只看该作者
looks great
古哥影视论坛www.stvwq.club 高清电影,蓝光电影,最新电影,电影天堂,影视帝国,人人影视
回复 支持 反对

使用道具 举报

20#
发表于 2019-10-12 20:40:09 | 只看该作者

这东西我收了!谢谢楼主!古哥影视真好!一定要坚持下去,支持不住时请让大家捐助
古哥影视论坛www.stvwq.club 高清电影,蓝光电影,最新电影,电影天堂,影视帝国,人人影视
回复 支持 反对

使用道具 举报

懒得打字嘛,点击右侧快捷回复->
您需要登录后才可以回帖 登录 | 注册(分享大片)

本版积分规则

影视帝国免责声明
本站提供网上学习交流和自由讨论使用,所有资源均来自互联网公开渠道,发?#24049;?#20010;?#25628;?#35770;并不代表本站立场,本站不负任何责任.
如发现有侵权行为,请与我们联系.我们将立刻从网站上删除,并向所有持版权者致最深歉意.
影视帝国论坛已经安全运行

QQ|小黑屋|?#21482;?#29256;|Archiver|古哥论坛

GMT+8, 2019-11-21 21:38 , Processed in 0.234490 second(s), 19 queries , Gzip On.

Powered by Discuz! X3.4

© 2001-2017 Comsenz Inc.

快速回复 返回顶部 返回列表
三剑客和女王彩金
斗地主在线玩 河北快乐扑克走势图 棋牌平台刷流水 3d268期三天计划 河北十一选五开奖 梦幻西游胚子商人还赚钱吗2018 重庆幸运农场规律公式 28号上证指数 乐彩开奖直播 最新娱乐棋牌游戏下载 双色球斜跳号分布图 dnf有哪些赚钱方法 福建十一选五计划软件手机版下载 氧气听书 主播如何赚钱 星空斗地主官网 彩票的大数据分析软件